<svg xmlns="http://www.w3.org/2000/svg">
<defs>
<font
   id="FontID1"
   font-variant="normal"
   font-style="normal"
   font-weight="400"
   horiz-origin-x="0"
   horiz-origin-y="0"
   horiz-adv-x="90"
   vert-origin-x="45"
   vert-origin-y="90"
   vert-adv-y="90"
   style="font-style:normal;font-variant:normal;font-weight:400">
	<font-face
   font-family="Dax-Medium"
   id="font-face7">
	</font-face>
   <missing-glyph
   id="missing-glyph9"><path
     d="M0 0z"
     id="path11" /></missing-glyph>
   <glyph
   unicode=" "
   horiz-adv-x="271"
   id="glyph13" />
   <glyph
   unicode="b"
   horiz-adv-x="548"
   id="glyph15"><path
     d="M504.006 282.167c0,161.003 -87.0013,264 -212,264 -51.0107,0 -80.0066,-10.0043 -106.007,-22.0011l0 261.004 -120.999 0 0 -756.009c33.998,-21.9874 94.9992,-39.165 178.002,-39.165 167.997,0 261.004,111.174 261.004,292.171zm-120.999 -6.99474c0,-128.008 -39.0001,-210.007 -135.003,-210.007 -23.0043,0 -46.0086,3.99896 -62.0044,11.0074l0 382.993c19.9948,11.0074 40.0033,15.9958 72.9981,15.9958 92.0035,0 124.009,-87.9908 124.009,-199.989z"
     id="path17" /></glyph>
   <glyph
   unicode="l"
   horiz-adv-x="261"
   id="glyph19"><path
     d="M192.005 0.164905l0 785.005 -122.003 0 0 -785.005 122.003 0z"
     id="path21" /></glyph>
   <glyph
   unicode="e"
   horiz-adv-x="537"
   id="glyph23"><path
     d="M491.006 273.166c4.98839,180.997 -73.0119,275.997 -216.012,275.997 -140.994,0 -229.988,-101.994 -229.988,-277.989 0,-182.001 96.9919,-281.177 249.997,-281.177 81.9992,0 140.005,17.1776 178.002,38.1756l-29.0096 76.9971c-28.9959,-15.0064 -73.9875,-29.999 -135.992,-29.999 -89.0077,0 -137.009,49.9938 -146.999,149.995l330.003 48.0012zm-114.005 48.0012l-223.007 -33.998c-2.99578,128.997 46.0086,187.003 117,187.003 67.0066,0 106.007,-44.0023 106.007,-153.005z"
     id="path25" /></glyph>
   <glyph
   unicode="t"
   horiz-adv-x="343"
   id="glyph27"><path
     d="M305.996 5.16704l0 75.9939c-9.99052,-2.99578 -18.0022,-4.98839 -28.9959,-4.98839 -41.9959,0 -58.9949,27.9927 -58.9949,69.9886l0 315.011 87.9908 0 0 78.0002 -87.9908 0 0 152.991 -122.003 -33.998 0 -118.993 -59.9981 0 0 -78.0002 59.9981 0 0 -321.002c0,-75.0045 41.9959,-146.175 148.003,-146.175 28.9959,0 50.997,6.17021 61.9907,11.1723z"
     id="path29" /></glyph>
   <glyph
   unicode="s"
   horiz-adv-x="414"
   id="glyph31"><path
     d="M373.002 155.162c0,63.0076 -24.0075,117 -128.997,159.01 -47.0118,18.9916 -80.0066,40.9927 -80.0066,84.995 0,37.9969 27.0033,71.0055 76.9971,71.0055 38.0107,0 70.0023,-17.0127 85.9982,-30.0128l30.0128 71.0055c-35.0012,23.0043 -80.0066,37.9969 -140.005,37.9969 -102.997,0 -171.007,-70.0023 -171.007,-156 0,-55.9991 21.0117,-111.998 123.006,-150.998 54.9959,-20.998 79.0034,-42.9991 79.0034,-88.9939 0,-44.0023 -33.0086,-76.0076 -83.0024,-76.0076 -44.0023,0 -80.996,15.0064 -101.005,31.0022l-31.9916 -78.0002c31.9916,-22.0011 85.9982,-39.165 148.992,-39.165 118.004,0 192.005,76.1725 192.005,164.163z"
     id="path33" /></glyph>
  </font>
  <font
   id="FontID0"
   font-variant="normal"
   font-weight="700"
   horiz-origin-x="0"
   horiz-origin-y="0"
   horiz-adv-x="90"
   vert-origin-x="45"
   vert-origin-y="90"
   vert-adv-y="90"
   style="font-variant:normal;font-weight:700">
	<font-face
   font-family="Dax-Bold"
   id="font-face36">
	</font-face>
   <missing-glyph
   id="missing-glyph38"><path
     d="M0 0z"
     id="path40" /></missing-glyph>
   <glyph
   unicode="N"
   horiz-adv-x="653"
   id="glyph42"><path
     d="M589.003 0.168307l0 687.994 -137.002 0 0 -349.999c0,-36 3.99507,-68.997 3.99507,-68.997l-1.99311 0c0,0 -14.0049,31.0039 -35.0078,66.0029l-210.995 352.993 -142.999 0 0 -687.994 136.001 0 0 382.996c0,38.0019 -4.00393,75.0029 -4.00393,75.0029l2.00197 0c0,0 14.997,-36 36,-71.9999l228.995 -385.999 125.008 0z"
     id="path44" /></glyph>
   <glyph
   unicode="E"
   horiz-adv-x="458"
   id="glyph46"><path
     d="M417.003 0.168307l0 109.001 -189 0 0 189 164.994 0 0 105.998 -164.994 0 0 175.004 189 0 0 108.992 -352.001 0 0 -687.994 352.001 0z"
     id="path48" /></glyph>
   <glyph
   unicode="A"
   horiz-adv-x="613"
   id="glyph50"><path
     d="M608.996 0.168307l-222.998 687.994 -157.996 0 -223.999 -687.994 144.992 0 44.0078 146.994 207 0 41.997 -146.994 166.996 0zm-230.997 239.997l-160.999 0 64.0009 223.999c13.996,49.0039 18,83.0019 18,83.0019l2.00197 0c0,0 2.99409,-34.999 15.998,-83.0019l60.998 -223.999z"
     id="path52" /></glyph>
   <glyph
   unicode="G"
   horiz-adv-x="609"
   id="glyph54"><path
     d="M550 30.1624l0 374.005 -234 0 0 -96.9979 82.0009 0 0 -195.006c-8.99999,-4.99606 -24.998,-10.001 -51.0059,-10.001 -83.994,0 -138.995,80.0078 -138.995,241.007 0,166.996 61.999,239.997 172.001,239.997 58.996,0 93.995,-12.0029 115.999,-24.998l47.0019 100.001c-43.999,24.998 -101.002,39.995 -182.002,39.995 -198,0 -317.002,-141.998 -317.002,-351 0,-219.995 103.004,-357.165 311.997,-357.165 94.0038,0 149.005,14.1644 194.005,40.1633z"
     id="path56" /></glyph>
   <glyph
   unicode="U"
   horiz-adv-x="608"
   id="glyph58"><path
     d="M543.002 203.164l0 484.999 -150.006 0 0 -482.997c0,-61.999 -34.999,-93.0029 -82.0009,-93.0029 -46.9931,0 -82.993,31.0039 -82.993,92.0019l0 483.998 -163.001 0 0 -484.999c0,-131.997 101.994,-214.166 238.996,-214.166 138.003,0 239.005,83.1702 239.005,214.166z"
     id="path60" /></glyph>
   <glyph
   unicode="V"
   horiz-adv-x="568"
   id="glyph62"><path
     d="M563.004 688.163l-156.003 0 -98.9999 -399.995c-8.99999,-37.0009 -15.998,-84.0029 -15.998,-84.0029l-1.00098 0c0,0 -7.00688,47.0019 -16.0069,84.0029l-95.997 399.995 -172.001 0 208.001 -687.994 140.997 0 207.009 687.994z"
     id="path64" /></glyph>
   <glyph
   unicode="R"
   horiz-adv-x="590"
   id="glyph66"><path
     d="M569.001 0.168307l-183.003 306 0 2.00197c89.9999,13.996 159.006,84.995 159.006,174.995 0,131.005 -86.0048,214.999 -272.002,214.999 -85.0039,0 -157.004,-15.998 -207,-39.995l0 -658 159.998 0 0 303.998 2.00197 0 163.001 -303.998 177.998 0zm-183.003 474.998c0,-83.0019 -40.996,-133.999 -124.999,-133.999 -13.996,0 -29.0019,2.00197 -34.999,4.00393l0 252c12.0029,4.99606 27,8.99999 47.0019,8.99999 85.996,0 112.996,-43.0068 112.996,-131.005z"
     id="path68" /></glyph>
   <glyph
   unicode="n"
   horiz-adv-x="576"
   id="glyph70"><path
     d="M517.006 0.164905l0 378.004c0,97.995 -61.0013,170.993 -232.008,170.993 -96.0024,0 -171.996,-15.9958 -226.003,-39.9896l0 -509.008 156 0 0 440.998c18.0022,6.0053 35.0012,11.0074 66.0034,11.0074 63.0076,0 80.0066,-37.0075 80.0066,-75.0045l0 -377.001 156 0z"
     id="path72" /></glyph>
   <glyph
   unicode="l"
   horiz-adv-x="279"
   id="glyph74"><path
     d="M218.005 0.164905l0 785.005 -156 0 0 -785.005 156 0z"
     id="path76" /></glyph>
   <glyph
   unicode="a"
   horiz-adv-x="539"
   id="glyph78"><path
     d="M481.002 30.1639l0 322.005c0,145.996 -89.9971,196.993 -212,196.993 -94.9992,0 -165.002,-24.9969 -202.999,-40.9927l33.998 -89.0077c35.0012,16.0096 88.0045,33.0086 140.005,33.0086 56.9886,0 94.9992,-16.0096 94.9992,-72.0087l0 -24.9969c-162.006,-14.9926 -301.007,-55.9991 -301.007,-195.001 0,-111.998 80.0066,-170.169 236.007,-170.169 92.9929,0 165.991,16.1745 210.996,40.1682zm-145.996 57.0023c-14.0032,-6.99474 -34.0117,-10.9937 -57.0023,-10.9937 -62.0044,0 -98.0088,26.9895 -98.0088,89.9971 0,85.9982 61.0013,107.999 155.011,117l0 -196.004z"
     id="path80" /></glyph>
   <glyph
   unicode="e"
   horiz-adv-x="551"
   id="glyph82"><path
     d="M511.001 261.169c6.99474,182.001 -71.9949,287.994 -227.995,287.994 -155.011,0 -243.002,-109.002 -243.002,-277.989 0,-172.01 94.9992,-281.177 260.001,-281.177 91.0003,0 150.998,18.1671 192.994,39.165l-35.0012 97.0056c-28.9959,-15.0064 -76.9971,-28.9959 -139.991,-28.9959 -79.0034,0 -119.007,39.0001 -130,117.99l322.995 46.0086zm-145.007 57.9917l-187.992 -27.9927c-5.00213,110.995 35.0012,166.005 98.9982,166.005 57.0023,0 88.9939,-42.0096 88.9939,-138.012z"
     id="path84" /></glyph>
   <glyph
   unicode="g"
   horiz-adv-x="566"
   id="glyph86"><path
     d="M508.005 -3.99896l0 513.172c-38.0107,22.9906 -107.999,39.9896 -191.002,39.9896 -184.996,0 -277,-113.001 -277,-292.996 0,-161.003 92.9929,-260.166 221.99,-260.166 45.0054,0 76.0076,7.15964 94.0098,17.1639l0 -30.1639c0,-62.0044 -29.999,-101.005 -111.998,-101.005 -51.0107,0 -100.001,14.0032 -133.01,32.0054l-39.9896 -101.005c42.9991,-23.9937 117.99,-40.0033 200.992,-40.0033 137.998,0 236.007,70.0023 236.007,223.007zm-152.002 102.159c-13,-7.99791 -31.0022,-13 -52.0002,-13 -78.0002,0 -110.006,58.0055 -110.006,180.008 0,128.997 33.0086,193.997 113.001,193.997 20.998,0 37.0075,-2.99578 49.0044,-9.00109l0 -352.004z"
     id="path88" /></glyph>
   <glyph
   unicode="t"
   horiz-adv-x="364"
   id="glyph90"><path
     d="M330.003 7.17338l0 95.9887c-13,-3.99896 -20.0085,-5.99156 -33.0086,-5.99156 -35.0012,0 -49.9938,22.0011 -49.9938,62.9939l0 278.003 83.0024 0 0 101.005 -83.0024 0 0 154.997 -156 -40.0033 0 -114.994 -58.9949 0 0 -101.005 58.9949 0 0 -290c0,-83.0024 49.0044,-156.165 162.006,-156.165 35.9906,0 63.997,9.16599 76.9971,15.1713z"
     id="path92" /></glyph>
   <glyph
   unicode="s"
   horiz-adv-x="426"
   id="glyph94"><path
     d="M390.001 161.168c0,62.9939 -24.0075,114.005 -128.008,157.993 -41.9959,18.0022 -68.9992,38.0107 -68.9992,74.0013 0,31.0022 21.0117,55.9991 62.0044,55.9991 35.0012,0 66.0034,-14.9926 81.9992,-27.9927l37.9969 88.9939c-41.9959,26.0001 -87.9908,39.0001 -154.997,39.0001 -107.999,0 -179.994,-74.0013 -179.994,-165.991 0,-55.9991 22.0011,-111.009 120.999,-150.009 49.9938,-19.9948 68.9992,-39.9896 68.9992,-75.9939 0,-33.998 -27.0033,-59.0086 -67.0066,-59.0086 -39.0001,0 -75.9939,15.0064 -95.9887,31.0022l-40.0033 -98.9982c32.9948,-22.0011 92.0035,-39.165 157.993,-39.165 128.008,0 205.005,76.1725 205.005,170.169z"
     id="path96" /></glyph>
  </font>
</defs>
</svg>
